PERFORMER VA TITLE Bedrock Original Series OS mixed by Luke Fair FILE

 1
 2
 3
 4
 5
 6
 7
 8
 9
10
11
12
13
14
15
16
17
18
19
20
21
22
23
24
25
26
27
28
29
30
31
32
33
34
35
36
37
38
39
40
41
42
43
44
45
46
47
48
49
50
51
52
53
54
55
56
57
58
59
60
61
62
63
64
65
66
67
68
69
70
71
72
PERFORMER "VA"
TITLE "Bedrock Original Series OS 0.3 mixed by Luke Fair"
FILE "01_VA-Bedrock_Original_Series_OS_03_(Mixed_by_Luke_Fair).mp3" WAVE
TRACK 01 AUDIO
TITLE "Mooguno"
PERFORMER "Sebastian Leger"
INDEX 01 00:00:00
TRACK 02 AUDIO
TITLE "Friday Loops"
PERFORMER "Upfade"
INDEX 00 03:38:22
INDEX 01 03:38:23
TRACK 03 AUDIO
TITLE "Synth Song"
PERFORMER "Mongoose 1"
INDEX 00 08:53:22
INDEX 01 08:53:23
TRACK 04 AUDIO
TITLE "Ain't No"
PERFORMER "Manuel Tur"
INDEX 00 14:52:59
INDEX 01 14:52:60
TRACK 05 AUDIO
TITLE "Lose Yourself (ATFC Remix)"
PERFORMER "Overstreet"
INDEX 00 19:27:01
INDEX 01 19:27:02
TRACK 06 AUDIO
TITLE "Bulldog Beats"
PERFORMER "Moonbootica"
INDEX 00 25:47:12
INDEX 01 25:47:13
TRACK 07 AUDIO
TITLE "When In Rome"
PERFORMER "Skylark"
INDEX 00 31:06:17
INDEX 01 31:06:18
TRACK 08 AUDIO
TITLE "La Serenissima (Luke Fair Dub Edit)"
PERFORMER "T And F vs. Moltosugo"
INDEX 00 35:24:16
INDEX 01 35:24:17
TRACK 09 AUDIO
TITLE "Electric"
PERFORMER "Sebastian Leger"
INDEX 00 40:42:24
INDEX 01 40:42:25
TRACK 10 AUDIO
TITLE "Supernova"
PERFORMER "Mashtronic ft. Matthew Bradley"
INDEX 00 44:32:21
INDEX 01 44:32:22
TRACK 11 AUDIO
TITLE "Malteser Geezer (Big Mince Mix)"
PERFORMER "Rowan Blades & Chris Lake"
INDEX 00 49:33:29
INDEX 01 49:33:30
TRACK 12 AUDIO
TITLE "1983"
PERFORMER "Paolo Mojo"
INDEX 00 53:54:05
INDEX 01 53:54:06
TRACK 13 AUDIO
TITLE "Xristophan (Luke Fair & Desyn Masiello Mix)"
PERFORMER "Torley Wong"
INDEX 00 60:21:32
INDEX 01 60:21:33
TRACK 14 AUDIO
TITLE "Waves (Instrumental)"
PERFORMER "Lifelike"
INDEX 00 67:37:48
INDEX 01 67:37:49